#TITLE:Power Book Fiend;
#SUBTITLE:;
#ARTIST:Kid 606;
#TITLETRANSLIT:;
#SUBTITLETRANSLIT:;
#ARTISTTRANSLIT:;
#CREDIT:;
#BANNER:Powerbook Fiend - banner.png;
#BACKGROUND:Powerbook Fiend - bg.png;
#LYRICSPATH:;
#CDTITLE:cdtitle.png;
#MUSIC:PowerBookFiend.mp3;
#OFFSET:-4.233;
#SAMPLESTART:24.940;
#SAMPLELENGTH:12.000;
#SELECTABLE:YES;
#BPMS:0.000=220.000;
#STOPS:;
#BGCHANGES:;
// cache tags:
#FIRSTBEAT:0.000;
#LASTBEAT:512.000;
#SONGFILENAME:Songs/nhac/[Patashu] Powerbook Fiend/PowerBookFiend.sm;
#HASMUSIC:1;
#HASBANNER:1;
#MUSICLENGTH:143.830;
// end cache tags

//---------------dance-single - ----------------
#NOTES:
     dance-single:
     :
     Challenge:
     15:
     1.000,1.000,1.000,0.334,1.000,1401.000,425.000,48.000,0.000,12.000:
0100
1010
0100
0011
0100
1010
0100
0011
,
1000
0000
0101
0000
1000
0000
0110
0000
1000
0000
0101
0000
0010
0100
0010
0100
,
0010
1001
0010
1100
0010
1001
0010
1100
,
0001
0001
0001
0001
2002
0000
0000
3003
,
1000
0000
0000
0000
1000
0000
0000
0000
0010
0000
0000
0000
0010
0000
0000
0000
0100
0000
0000
0000
0100
0000
0000
0000
0001
0000
0000
0000
1000
0100
0010
0001
,
1000
0000
0100
0000
0100
0000
0010
0000
0010
0001
1000
0010
0100
0000
1001
0000
,
0010
0000
0010
0000
0100
0000
0100
0000
1000
0100
0010
0100
0010
0001
1000
0001
,
0100
0100
0001
0001
1000
0011
1000
0101
,
0010
1001
0010
0101
0010
1001
0010
0101
,
1000
0000
0011
0000
1000
0000
0101
0000
1000
0000
0011
0000
1000
0010
1000
0001
,
0010
1100
0010
0101
0010
1100
0010
0101
,
1000
1000
1000
1000
2002
0000
0000
3003
,
0100
0000
0000
0000
0000
0000
1001
0000
0000
0000
0000
0000
0010
0000
0000
0000
0000
0000
1001
0000
0000
0000
0000
0000
0100
0000
0000
0000
0000
0000
1001
0000
0000
0000
0000
0000
0001
0000
0000
0010
0000
0000
0100
0000
1000
0000
0100
0000
,
0010
0000
0000
0000
0000
0000
1001
0000
0000
0000
0000
0000
0100
0000
0000
0000
0000
0000
1001
0000
0000
0000
0000
0000
0010
0000
0000
0000
0000
0000
1001
0000
0000
0000
0000
0000
1000
0000
0000
0100
0000
0000
0010
0000
0001
0000
0010
0000
,
0100
0000
0000
0000
0000
0000
1001
0000
0000
0000
0000
0000
0010
0000
0000
0000
0000
0000
1001
0000
0000
0000
0000
0000
0100
0000
0000
0000
0000
0000
1001
0000
0000
0000
0000
0000
0010
0000
0000
0100
0000
0000
1000
0000
0100
0000
0010
0000
,
0001
0000
0000
0000
0001
0000
0000
0000
1000
0000
0000
0000
1000
0000
0000
0000
0001
0100
0010
1000
0001
0100
0010
1000
0001
0000
0010
0000
0001
0000
0010
0000
,
0001
0100
0010
0000
1000
0010
0100
0000
0001
0010
0100
0000
1000
0100
0010
0000
,
0001
1000
0010
0000
0100
0001
1000
0000
0100
0010
0001
0000
0100
0010
1000
0010
,
0100
0000
0000
0000
0000
0000
0000
0000
0000
0000
0000
0000
0000
0001
0000
0000
0010
0000
0000
0000
0000
0000
0000
0000
0000
0000
0000
0000
0000
0100
0000
0000
0010
0000
0000
0000
0000
0000
0000
0000
0000
0000
0000
0000
0000
1000
0000
0000
0100
0000
0000
0000
0000
0000
0000
0000
0000
0000
0000
0000
0000
0001
0000
0000
,
0110
0000
0110
0000
0110
0000
0110
0000
1000
0100
0010
0001
1000
0100
0010
0001
,
1100
0000
0010
0000
0101
0000
0010
1000
0000
0100
0010
0000
1100
0010
0100
0000
,
0011
0000
1000
0000
0110
0000
0001
1000
0000
0100
0010
0000
0101
0010
0100
0000
,
1001
0000
0100
0000
0011
0000
0100
1000
0000
0100
0010
0000
0011
0100
0010
0000
,
1010
0000
0110
0000
0101
0000
0110
0000
1000
0010
0100
0001
1000
0010
0100
0001
,
1100
0000
0002
0000
0113
0000
0001
0010
0100
1000
0100
0000
0011
1000
0010
0000
,
0101
0000
0010
0000
1100
0000
0001
0100
0010
0100
0001
0000
1100
0001
1000
0001
,
0110
0000
1000
0000
0101
0000
0010
1000
0100
0010
0001
0000
0110
1000
0010
0000
,
1100
0000
1010
0000
0110
0000
0101
0000
0001
0010
0100
1000
0001
0010
0100
1000
,
0210
0000
0301
0010
1100
0000
0010
0100
1000
0100
0010
0000
0101
1000
0100
0000
,
0011
0000
0100
0010
1100
0000
0001
0100
0010
1000
0100
0000
0011
1000
0010
1000
,
0110
0000
0001
1000
0110
0000
1000
0001
0100
0010
0100
0000
1001
0010
0001
0000
,
1100
0000
0000
0000
0000
0000
1001
0000
0000
0000
0000
0000
0011
0000
0000
0000
0000
0000
1001
0000
0000
0000
0000
0000
0000
0000
0002
0000
0000
0000
2000
0000
0000
0003
0000
0000
0000
0020
0000
3000
0000
0000
0030
0000
0000
0000
0000
0000
,
1100
0000
0000
0000
1100
0000
0000
0000
0110
0000
0000
0000
0110
0000
0000
0000
0011
0000
0000
0000
0011
0000
0000
0000
1001
0000
0000
0000
0100
0010
1000
0001
,
0100
0000
0000
0000
0011
0000
0000
0000
1010
0000
0000
0000
1010
0000
0000
0000
0110
0000
0000
0000
0110
0000
0000
0000
0101
0000
0000
0000
1000
0001
0100
0010
,
1000
0000
0000
0000
0101
0000
0000
0000
1001
0000
0000
0000
1001
0000
0000
0000
1010
0000
0000
0000
1010
0000
0000
0000
0110
0000
0000
0000
0001
0010
0100
1000
,
0010
0000
0110
0000
0011
0000
0101
0000
0100
0010
1000
0010
0100
0000
0020
0000
,
2130
0000
3010
0000
2100
0000
3000
0000
0200
0010
0300
1000
0200
0001
0300
1000
,
0020
0030
0020
0030
0002
0003
0002
0003
,
0001
0000
0000
0000
0000
0000
0000
0000
0000
0000
0000
0000
0010
0000
0000
0000
0000
0000
0000
0000
0000
0000
0000
0000
0000
0000
0000
0100
0000
0000
0000
0000
0000
0000
0000
0000
0000
0000
0000
0000
1000
0000
0000
0000
0000
0000
0000
0000
0100
0000
0000
0000
0000
0000
0001
0000
0000
0000
0000
0000
1000
0000
0000
0000
0000
0000
0010
0000
0000
0000
0000
0000
0100
0000
0000
0000
0000
0000
0001
0000
0000
0000
0000
0000
1000
0000
0000
0000
0000
0000
0010
0000
0000
0000
0000
0000
0100
0000
0000
0000
0000
0000
0000
0000
0001
0000
0000
0000
0000
0000
0000
0000
1000
0000
0000
0000
0000
0000
0000
0000
0010
0000
0000
0000
0000
0000
0000
0000
0100
0000
0000
0000
0000
0000
0000
0000
0001
0000
0000
0000
0000
0000
0000
0000
1000
0000
0000
0000
0000
0000
0000
0000
0000
0010
0000
0000
0000
0000
0000
0000
0000
0000
0100
0000
0000
0000
0000
0000
0000
0000
0000
0000
0001
0000
0000
0000
0000
0000
0000
0000
1000
0000
0000
0000
0000
0000
0000
0000
0000
0000
0000
0000
,
0010
0100
0001
1000
0010
0100
0001
1000
,
0110
0000
0000
0000
0101
0000
0000
0000
0011
0000
0000
0000
1001
0000
0000
0000
1010
0000
0000
0000
0110
0000
0000
0000
1001
0000
0000
0000
0010
0100
0001
1000
,
0100
0000
0000
0000
0000
0000
0000
0000
0010
0000
0000
0000
0000
0000
0000
0000
0001
0000
0000
0000
0000
0000
0000
0000
0000
0000
0000
0000
0000
0000
0000
0000
0000
0000
0000
0000
0000
0000
0000
0000
0000
0000
0000
0000
0000
0000
0000
0000
0010
0000
0000
0000
0000
0000
0100
0000
0000
0000
0000
0000
0010
0000
0000
0000
0000
0000
0100
0000
0000
0000
0000
0000
0010
0000
0000
0000
0000
0000
0000
0000
0000
0000
0000
0000
1000
0000
0000
0000
0000
0000
0000
0000
0000
0000
0000
0000
0001
0000
0000
0000
0000
0000
0000
0000
0000
0000
0000
0000
0100
0000
0000
0000
0000
0000
0000
0000
0000
0000
0000
0000
0010
0000
0000
0000
0000
0000
0000
0000
0000
0000
0000
0000
1000
0000
0000
0000
0000
0000
0000
0000
0000
0000
0000
0000
0010
0000
0000
0000
0000
0000
0000
0000
0000
0000
0000
0000
0100
0000
0000
0000
0000
0000
0000
0000
0000
0000
0000
0000
0010
0000
0000
0000
0000
0000
0000
0000
0000
0000
0000
0000
0000
0000
0000
0000
0000
0000
0000
0000
0000
0000
0000
0000
,
0100
0000
0000
0000
1001
0000
0000
0000
0110
0000
0000
0000
1001
0000
0000
0000
1100
0000
0000
0000
0110
0000
0000
0000
0011
0000
0000
0000
0001
0010
0100
1000
,
0001
0000
0000
0000
0000
0000
0000
0000
0000
0000
0000
0000
0000
0000
0000
0000
0010
0000
0000
0000
0000
0000
0000
0000
0000
0000
0000
0000
0000
0000
0000
0000
0001
0000
0000
0000
0000
0000
0000
0000
0000
0000
0000
0000
0000
0000
0000
0000
0100
0000
0000
0000
0000
0000
0000
0000
0000
0000
0000
0000
0000
0000
0000
0000
0000
0000
0000
0000
0000
0000
0000
0000
0000
0000
0000
0000
0000
0000
0001
0000
0000
0000
0000
0000
0000
0000
0000
0000
0000
0000
0000
0000
1000
0000
0000
0000
0000
0000
0000
0000
0000
0000
0100
0000
0000
0000
0000
0000
0000
0000
0000
0000
0000
0000
0010
0000
0000
0000
0000
0000
0000
0000
0000
0000
0000
0000
0001
0000
0000
0000
0000
0000
0000
0000
0000
0000
0000
0000
0000
0000
0000
1000
0000
0000
0000
0000
0000
0000
0000
0000
0000
0000
0000
0000
0000
0000
0010
0000
0000
0000
0000
0000
0000
0000
0000
0000
0000
0000
1000
0000
0000
0000
0000
0000
0100
0000
0000
0000
0000
0000
0010
0000
0000
0000
0000
0000
0100
0000
0000
0000
0000
0000
,
1000
0000
0000
0100
0010
0000
1001
0000
0000
0100
0001
0000
1010
0000
0000
0010
,
0001
0000
0000
0000
0000
0000
0000
0000
0000
0000
0000
0000
0000
0000
0000
0000
0000
0000
0000
0000
0000
1000
0000
0000
0000
0000
0000
0000
0000
0000
0000
0000
0000
0000
0000
0000
0000
0000
0000
0000
0000
0000
0000
0000
0000
0000
0000
0000
0100
0000
0000
0000
0000
0000
0000
0000
0010
0000
0000
0000
0000
0000
0000
0000
0000
0000
0000
0000
0000
0000
0000
0000
0001
0000
0000
0000
0000
0000
0000
0000
0000
0000
0000
0000
0000
0000
0000
0000
0100
0000
0000
0000
0000
0000
0000
0000
0000
0000
0000
0000
0000
0000
0000
0000
0000
0000
0000
0000
0000
0000
0000
0000
0000
0000
0000
0000
0000
0000
0000
0000
1000
0000
0000
0000
0001
0000
0000
0000
0000
0000
0000
0000
0000
0000
0000
0000
0000
0000
0000
0000
0000
0000
0000
0000
0010
0000
0000
0000
0000
0000
0000
0000
0000
0000
0000
0000
0100
0000
0000
0000
0000
0000
0000
0000
0000
0000
0000
0000
0000
0000
0000
0000
0000
0000
0000
0000
0000
0000
0000
0000
0000
0000
0000
0000
0000
0000
0000
0000
0000
0000
0000
0000
,
1010
0000
0000
0001
1000
0000
0110
0000
0000
0001
1000
0000
0011
0000
0000
0100
,
0001
0000
0000
0000
0000
0000
0000
0000
0000
0000
0000
0000
0000
0000
0000
0000
0000
0000
0000
0000
0000
0010
0000
0000
0000
0000
0000
0000
0000
0000
0000
0000
0000
0000
0000
0000
0000
0000
0000
0000
0000
0000
0000
0000
0000
0000
0000
0000
0100
0000
0000
0000
0000
0000
0000
0000
0001
0000
0000
0000
0000
0000
0000
0000
0000
0000
0000
0000
0000
0000
0000
0000
0010
0000
0000
0000
0000
0000
0000
0000
0000
0000
0000
0000
0000
0000
0000
0000
1000
0000
0000
0000
0000
0000
0000
0000
0000
0000
0000
0000
0000
0000
0000
0000
0000
0000
0000
0000
0000
0000
0000
0000
0000
0000
0000
0000
0000
0000
0000
0000
0001
0000
0000
0000
0010
0000
0000
0000
0000
0000
0000
0000
0000
0000
0000
0000
0000
0000
0000
0000
0000
0000
0000
0000
1000
0000
0000
0000
0000
0000
0000
0000
0000
0000
0000
0000
0100
0000
0000
0000
0000
0000
0000
0000
0000
0000
0000
0000
0000
0000
0000
0000
0000
0000
0000
0000
0000
0000
0000
0000
0000
0000
0000
0000
0000
0000
0000
0000
0000
0000
0000
0000
,
0011
0000
0000
0100
0001
0000
1010
0000
0000
0001
1000
0000
0110
0000
0000
1000
,
0011
0100
1000
0001
0110
0000
1000
0010
1000
0100
1001
0000
0010
0010
0101
0000
,
1000
0000
0011
0000
1000
1000
0001
1000
,
0100
0000
0000
0000
0000
0000
0000
0000
0000
0000
0000
0000
0000
0000
0000
0000
0000
0000
0000
0000
0000
0010
0000
0000
0000
0000
0000
0000
0000
0000
0000
0000
0000
0000
0000
0000
0000
0000
0000
0000
0000
0000
0000
0000
0000
0000
0000
0000
1000
0000
0000
0000
0000
0000
0000
0000
0001
0000
0000
0000
0000
0000
0000
0000
0000
0000
0000
0000
0000
0000
0000
0000
0100
0000
0000
0000
0000
0000
0000
0000
0000
0000
0000
0000
0000
0000
0000
0000
1000
0000
0000
0000
0000
0000
0000
0000
0000
0000
0000
0000
0000
0000
0000
0000
0000
0000
0000
0000
0000
0000
0000
0000
0000
0000
0000
0000
0000
0000
0000
0000
0010
0000
0000
0000
0100
0000
0000
0000
0000
0000
0000
0000
0000
0000
0000
0000
0000
0000
0000
0000
0000
0000
0000
0000
0001
0000
0000
0000
0000
0000
0000
0000
0000
0000
0000
0000
1000
0000
0000
0000
0000
0000
0000
0000
0000
0000
0000
0000
0000
0000
0000
0000
0000
0000
0000
0000
0000
0000
0000
0000
0000
0000
0000
0000
0000
0000
0000
0000
0000
0000
0000
0000
,
0001
0010
1100
0000
0001
0001
1000
0001
,
0010
0000
0000
0000
0000
0000
0000
0000
0000
0000
0000
0000
0000
0000
0000
0000
0000
0000
0000
0000
0000
1000
0000
0000
0000
0000
0000
0000
0000
0000
0000
0000
0000
0000
0000
0000
0000
0000
0000
0000
0000
0000
0000
0000
0000
0000
0000
0000
0001
0000
0000
0000
0000
0000
0000
0000
0100
0000
0000
0000
0000
0000
0000
0000
0000
0000
0000
0000
0000
0000
0000
0000
0010
0000
0000
0000
0000
0000
0000
0000
0000
0000
0000
0000
0000
0000
0000
0000
0001
0000
0000
0000
0000
0000
0000
0000
0000
0000
0000
0000
0000
0000
0000
0000
0000
0000
0000
0000
0000
0000
0000
0000
0000
0000
0000
0000
0000
0000
0000
0000
1000
0000
0000
0000
0010
0000
0000
0000
0000
0000
0000
0000
0000
0000
0000
0000
0000
0000
0000
0000
0000
0000
0000
0000
0100
0000
0000
0000
0000
0000
0000
0000
0000
0000
0000
0000
0001
0000
0000
0000
0000
0000
0000
0000
0000
0000
0000
0000
0000
0000
0000
0000
0000
0000
0000
0000
0000
0000
0000
0000
0000
0000
0000
0000
0000
0000
0000
0000
0000
0000
0000
0000
,
0110
1000
0001
0100
1010
0000
0100
0001
0100
0010
1100
0000
0010
0100
0010
0100
,
1000
0000
1000
0000
0110
0000
0110
0000
1000
0001
1000
0001
1000
0000
1000
0000
,
1000
0000
0000
0000
0000
0000
0000
0000
0000
0000
0000
0000
0000
0000
0000
0000
0000
0000
0000
0000
0000
0001
0000
0000
0000
0000
0000
0000
0000
0000
0000
0000
0000
0000
0000
0000
0000
0000
0000
0000
0000
0000
0000
0000
0000
0000
0000
0000
0100
0000
0000
0000
0000
0000
0000
0000
0010
0000
0000
0000
0000
0000
0000
0000
0000
0000
0000
0000
0000
0000
0000
0000
1000
0000
0000
0000
0000
0000
0000
0000
0000
0000
0000
0000
0000
0000
0000
0000
0100
0000
0000
0000
0000
0000
0000
0000
0000
0000
0000
0000
0000
0000
0000
0000
0000
0000
0000
0000
0000
0000
0000
0000
0000
0000
0000
0000
0000
0000
0000
0000
0001
0000
0000
0000
1000
0000
0000
0000
0000
0000
0000
0000
0000
0000
0000
0000
0000
0000
0000
0000
0000
0000
0000
0000
0010
0000
0000
0000
0000
0000
0000
0000
0000
0000
0000
0000
0100
0000
0000
0000
0000
0000
0000
0000
0000
0000
0000
0000
0000
0000
0000
0000
0000
0000
0000
0000
0000
0000
0000
0000
0000
0000
0000
0000
0000
0000
0000
0000
0000
0000
0000
0000
,
0011
1000
0001
0100
1010
0000
0001
1000
0001
1000
0110
0000
0100
0010
0100
1000
,
0001
0000
0110
0000
0001
0001
0100
0001
,
0001
0000
0000
0000
0000
0000
0000
0000
0000
0000
0000
0000
0000
0000
0000
0000
0000
0000
0000
0000
0000
1000
0000
0000
0000
0000
0000
0000
0000
0000
0000
0000
0000
0000
0000
0000
0000
0000
0000
0000
0000
0000
0000
0000
0000
0000
0000
0000
0010
0000
0000
0000
0000
0000
0000
0000
0100
0000
0000
0000
0000
0000
0000
0000
0000
0000
0000
0000
0000
0000
0000
0000
0001
0000
0000
0000
0000
0000
0000
0000
0000
0000
0000
0000
0000
0000
0000
0000
0010
0000
0000
0000
0000
0000
0000
0000
0000
0000
0000
0000
0000
0000
0000
0000
0000
0000
0000
0000
0000
0000
0000
0000
0000
0000
0000
0000
0000
0000
0000
0000
1000
0000
0000
0000
0001
0000
0000
0000
0000
0000
0000
0000
0000
0000
0000
0000
0000
0000
0000
0000
0000
0000
0000
0000
0200
0000
0000
0000
0000
0000
0000
0000
0000
0000
0000
0000
0000
0000
0000
0000
0000
0000
0000
0000
0000
0000
0000
0000
0300
0000
0000
0000
0000
0000
0000
0000
0000
0000
0000
0000
0010
0000
0000
0000
0000
0000
0000
0000
0000
0000
0000
0000
,
1000
1000
0101
0000
1000
1000
0101
1000
,
1000
0000
0000
0000
1000
0000
0000
0000
0101
0000
0000
0000
0101
0000
0000
0000
0010
0000
0100
0000
0010
0000
0100
0000
0010
0001
1000
0100
0011
0000
0000
0000
,
0011
0000
0000
0000
0000
0000
0000
0000
0110
0000
0000
0000
0000
1100
0000
0000
0000
0000
0000
0000
1100
0000
0000
0000
0110
0000
0000
0000
0000
0000
1000
0100
,
0011
0000
0000
0000
0000
0000
0000
0000
0110
0000
0000
0000
0000
1001
0000
0000
0000
0000
0000
0000
1001
0000
0000
0000
0110
0000
0000
0000
0000
0000
0001
0010
,
1100
0000
0000
0000
0000
0000
0000
0000
1001
0000
0000
0000
0000
1010
0000
0000
0000
0000
0000
0000
1010
0000
0000
0000
1001
0000
0000
0000
0000
0000
0010
0100
,
1001
0000
0000
0000
0000
0000
0000
0000
0011
0000
0000
0000
0000
1100
0000
0000
0000
0000
0000
0000
1100
0000
0000
0000
0011
0000
0000
0000
0000
0000
0100
0010
,
1001
0000
0000
0000
0001
0010
0100
1000
0011
0000
0000
0000
0000
0110
0000
0000
0000
0000
0000
0000
0110
0000
0000
0000
1100
0000
0000
0000
0000
0000
0000
0000
,
1000
0000
0000
0000
0000
0000
0100
0000
0000
0000
0000
0000
0010
0000
0000
0000
0000
0000
0001
0000
0000
0000
0000
0000
1000
0000
0000
0000
0000
0000
0000
0000
0000
0000
0000
0000
0000
0000
0000
0000
0000
0000
0000
0000
0000
0000
0000
0000
0010
0000
0000
0000
0000
0000
0100
0000
0000
0000
0000
0000
0001
0000
0000
0000
0000
0000
1000
0000
0000
0000
0000
0000
0000
0000
0000
0000
0000
0000
0110
0000
0000
0000
0000
0000
0000
0000
0000
0000
0000
0000
0000
0000
0000
0000
0000
0000
0000
0000
0000
0000
0000
0000
0000
0000
0000
0000
0000
0000
0000
0000
0000
0000
0000
0000
0000
0000
0000
0000
0000
0000
0110
0000
0000
0000
0000
0000
0000
0000
0000
0000
0000
0000
0000
0000
0000
0000
0000
0000
0000
0000
0000
0000
0000
0000
0011
0000
0000
0000
0000
0000
0000
0000
0000
0000
0000
0000
0000
0000
0000
0000
0001
0000
0000
0000
0000
0000
0000
0000
0000
0000
0000
0000
0000
0000
0000
0000
0001
0000
0000
0000
0000
0000
0000
0000
0000
0000
0000
0000
0000
0000
0000
0000
,
1001
0000
0000
0000
0000
0000
0000
0000
0000
0100
0000
0000
0000
0000
0000
0000
1010
0000
0000
0000
0000
0000
0000
0000
0000
0001
0000
0000
0000
0000
0000
0000
0110
0000
0000
0000
0000
0000
0000
0000
0000
1000
0000
0000
0000
0000
0000
0000
0101
0000
0000
0000
0000
0000
0000
0000
0000
0010
0000
0000
0000
0000
0000
0000
,
1001
0000
0000
0000
0000
0000
0000
0000
0000
0100
0000
0000
0000
0000
0000
0000
1010
0000
0000
0000
0000
0000
0000
0000
0000
0100
0000
0000
0000
0000
0000
0000
2000
0000
0000
0000
0000
0000
0000
0000
0000
0000
0000
0000
0000
0000
0000
0000
0002
0000
0000
0000
0000
0000
0000
0000
3003
0000
0000
0000
0000
0000
0000
0000
,
0110
0001
0100
0010
1100
0000
0001
1000
0100
0010
0101
0000
0001
0010
0100
1000
,
0001
0010
0100
1000
0001
0100
0010
1000
0011
0000
0000
0000
1000
0000
0100
0000
0010
0100
1000
0000
0011
0000
0000
0000
0100
0000
0010
0000
0100
0000
0001
0000
,
1100
0000
0000
0000
0000
0000
0000
0000
0000
0000
0000
0000
0110
0000
0000
0000
0000
0000
0000
0000
0000
0000
0000
0000
0011
0000
0000
0000
0000
0000
0000
0000
0000
0000
0000
0000
1001
0000
0000
0000
0000
0000
0000
0000
0000
0000
0000
0000
0110
0000
0000
0000
0000
0000
0000
0000
0000
0000
0000
0000
0000
0000
0000
0000
0000
0000
0000
0000
0000
0000
0000
0000
0001
0000
0000
0000
0000
0000
0000
0000
0000
0000
0000
0000
0100
0000
0000
0000
0000
0000
0000
0000
0000
0000
0000
0000
0010
0000
0000
0000
0000
0000
0000
0000
0000
0000
0000
0000
1000
0000
0000
0000
0000
0000
0000
0000
0000
0000
0000
0000
0100
0000
0000
0000
0000
0000
0010
0000
0000
0000
0000
0000
0001
0000
0000
0000
0000
0000
0010
0000
0000
0000
0000
0000
0100
0000
0000
0000
0000
0000
0000
0000
1000
0000
0000
0000
0000
0000
0000
0000
0100
0000
0000
0000
0000
0000
0000
0000
0010
0000
0000
0000
0000
0000
0000
0000
0001
0000
0000
0000
0000
0000
0000
0000
0010
0000
0000
0000
0000
0000
0000
0000
,
1100
1010
0110
0101
1010
0000
0100
0001
1000
0010
1001
0000
0110
0000
0110
0000
,
1001
0000
0000
0000
0010
0000
0001
0100
1010
0000
0000
0000
0001
0000
1000
0010
0100
0001
1000
0010
1001
0000
0110
0000
1001
0000
0110
0000
0000
0000
1001
0000
,
0110
0000
0000
0000
0000
0000
0000
0000
0000
0000
0000
0000
0000
0000
0000
0000
0101
0000
0000
0000
0000
0000
0000
0000
0000
0000
0000
0000
0000
0000
0000
0000
1001
0000
0000
0000
0000
0000
0000
0000
0000
0000
0000
0000
0000
0000
0000
0000
1010
0000
0000
0000
0000
0000
0000
0000
0000
0000
0000
0000
0000
0000
0000
0000
0000
0000
0000
0000
0000
0000
0000
0000
0100
0000
0000
0000
0000
0000
0001
0000
0000
0000
0000
0000
0010
0000
0000
0000
0000
0000
0100
0000
0000
0000
0000
0000
1000
0000
0000
0000
0000
0000
0100
0000
0000
0000
0000
0000
0010
0000
0000
0000
0000
0000
0001
0000
0000
0000
0000
0000
1100
0000
0000
0000
0000
0000
0000
0000
0000
0000
0000
0000
0000
0000
0000
0000
0000
0000
0000
0000
0000
0000
0000
0000
0010
0000
0000
0000
0000
0000
0000
0000
0000
0000
0000
0000
0001
0000
0000
0000
0000
0000
0000
0000
0000
0000
0000
0000
1000
0000
0000
0000
0000
0000
0000
0000
0000
0000
0000
0000
0000
0000
0000
0000
0000
0000
0000
0000
0000
0000
0000
0000
,
0110
0000
0101
0000
1001
0000
1010
0000
0001
0010
0100
1000
0001
0010
0100
1000
0002
0000
0000
0000
2003
0000
3020
0000
0000
0000
0000
0000
0000
0000
0000
0000
,
0000
0000
0000
0000
0000
0000
0000
0000
0000
0000
0000
0000
0000
0000
0000
0230
0000
0000
0000
0000
0000
0000
0000
0000
0000
0000
0000
0000
0000
0000
2300
0000
0000
0000
0000
0000
3010
0000
0100
0000
0001
0000
0010
0000
0100
0000
1000
0000
0001
0000
0000
0000
0010
0000
0000
0000
0100
0000
0000
0000
1000
0000
0000
0000
,
0011
0100
0010
0000
1100
0010
0001
0100
0010
0100
1001
0000
0100
0100
1010
0000
,
0101
0010
1000
0000
0011
0100
1000
0010
0100
0001
0110
0000
1000
1000
0011
0000
,
1001
0010
0100
0000
0011
1000
0010
0100
0001
0010
1100
0000
0010
0010
1001
0000
,
0110
1100
0110
0002
0023
0230
2300
3000
,
0101
0000
0010
1000
0011
0000
0100
0001
1000
0100
0011
0000
1000
1000
0110
0000
,
0101
0000
1000
0001
0110
0000
0001
1000
0100
0010
1100
0000
0001
0001
0110
0000
,
1001
0000
0100
0001
0110
0000
1000
0010
0100
0001
0110
0000
1000
1000
0101
0000
,
0010
0000
1000
0000
0001
0000
0100
0000
0001
0000
1000
0000
0001
1000
0000
0000
,
0110
1001
0110
1001
0110
0000
0101
0000
1000
0100
0011
0000
0001
0010
0100
0000
,
0010
0100
0001
0010
1100
0000
0010
0100
0001
0100
1010
0000
0100
0001
1000
0100
,
0011
0100
1000
0100
1010
0000
0100
0001
1000
0010
0101
0000
1000
1000
0110
0000
,
0101
0010
1000
0001
0110
0000
1000
0100
0010
0100
1001
0000
0100
0100
1010
0000
,
0001
0001
0100
0100
0010
0010
1000
1000
0001
0001
0100
0100
0010
0010
1000
1000
,
0001
0000
0000
0000
0000
0000
0000
0000
0100
0000
0000
0000
1000
0000
0000
0000
0000
0000
0000
0000
0010
0000
0000
0000
0001
0000
0000
0000
0000
0000
0000
0000
0100
0000
0000
0000
1000
0000
0000
0100
0000
0000
0010
0000
0000
0001
0000
0000
,
1100
0001
0100
0010
1001
0000
0110
0001
1000
0100
1010
0000
0001
0001
1100
0000
,
0011
0110
1100
0020
0230
0302
2003
3000
,
0101
1000
0001
0100
1010
0000
0101
0010
1000
0001
0110
0000
1000
1000
0110
0000
,
0011
1000
0010
0100
0011
0000
1100
0010
1000
0001
0110
0000
1000
1000
0011
0000
,
0110
1000
0001
0100
1010
0000
1001
0010
0100
0010
0101
0000
0010
0010
1100
0000
,
0001
0000
0000
0000
0000
0000
0100
0000
0000
0010
0000
0000
1000
0000
0000
0000
0100
0000
0000
0000
0010
0000
0000
0000
0100
0000
0000
0000
0000
0000
1000
0000
0000
0000
0000
0000
0001
0000
0000
0100
0000
0000
0000
0000
0000
0000
0000
0000
,
0110
1001
0110
1001
0110
0000
1001
0000
0010
0100
1001
0000
0100
0010
1000
0000
,
0100
0010
1000
0010
1100
0000
0010
0100
0001
0100
1010
0000
0101
0100
1010
0000
,
0101
1000
0001
0100
0011
0000
1100
0010
0100
0001
0110
0000
1100
0100
0011
0000
,
0101
0010
1000
0001
0110
0000
1100
0001
0100
0010
0101
0000
0101
0100
1010
0000
,
0101
0000
0010
1000
0110
0000
0100
0001
0010
0100
1000
0010
0101
0000
0010
0100
,
0001
0010
0100
1000
0001
0010
0100
1000
0001
0000
0010
0000
0100
0000
1000
0000
0001
0000
0000
0000
0010
0000
0000
0000
0100
0000
0000
0000
1000
0000
0000
0000
,
0110
0000
0001
0100
1010
0100
0001
0010
1100
0000
0010
0000
0101
0000
1010
0000
,
0110
0000
0001
0100
1010
0001
0100
0010
1100
0000
0001
0000
0110
0000
1001
0000
,
1100
0000
0010
0100
0011
1000
0010
0100
1001
0000
0010
0000
0101
0000
1010
0000
,
0110
0000
1000
0100
1010
0100
0001
0010
0101
0000
1000
0000
0011
0000
1100
0000
,
1001
0000
0000
0000
0000
0000
0100
0000
0000
0001
0000
0000
0000
1010
0000
0001
0000
0000
0100
0000
0000
0010
0000
0000
0101
0000
0000
0000
0000
0000
0010
0000
0000
0000
0000
0000
1001
0000
0000
0000
0000
0000
0110
0000
0000
0000
0000
0000
,
0011
0000
0100
1000
0110
0001
0100
0010
1001
0000
0100
0000
0011
0000
1100
0000
,
0101
0000
0000
0000
0000
0000
0010
0000
0000
0100
0000
0000
0000
0011
0000
1000
0000
0000
0010
0000
0000
0100
0000
0000
1001
0000
0000
0000
0000
0000
0100
0000
0000
0000
0000
0000
1001
0000
0000
0000
0000
0000
0110
0000
0000
0000
0000
0000
,
0101
0000
0010
1000
0101
0010
1000
0001
0110
0000
1000
0000
0101
0000
1010
0000
,
1001
0100
0010
0100
0011
0000
1100
0010
0100
0001
0110
0000
1001
1000
0101
0000
,
0011
0100
0001
0010
1100
0000
0101
0010
1000
0001
0110
0000
0101
0100
1001
0000
,
0110
0001
1000
0100
1010
0000
0101
0010
1000
0001
0110
0000
0011
0010
1100
0000
,
0010
0100
1001
0010
0100
1001
0010
0100
,
1001
0010
1100
0010
1001
0000
0011
0100
1001
0100
0011
0000
0110
0100
1001
0000
,
0110
1000
0110
0001
1010
0000
0101
0010
1100
0010
1001
0000
0011
0010
1100
0000
,
0011
0100
1010
0100
1001
0000
0110
0001
1100
0010
0101
0000
1001
0001
1100
0000
,
0010
0000
0000
0000
0000
0000
0000
0000
0000
0000
0000
0000
0000
0000
0000
0000
0000
0000
0000
0000
0000
0000
0000
0000
0000
0000
0000
0000
0000
0000
0100
0000
0000
0000
0000
0000
0000
0000
0000
0000
0000
0000
0000
0000
0000
0000
0000
0000
0000
0000
0000
0000
0000
0000
0000
0000
0000
0000
0000
0000
0000
0000
0000
0000
0000
0000
0000
0000
0000
0000
0000
0000
0000
0000
0000
0000
0000
0000
0000
0000
1000
0000
0000
0000
0000
0000
0000
0000
0000
0000
0000
0000
0000
0000
0000
0000
0000
0000
0000
0000
0000
0000
0000
0000
0000
0000
0000
0000
0000
0000
0000
0000
0001
0000
0000
0000
0000
0000
0000
0000
0000
0000
0000
0000
0000
0000
0000
0000
0000
0000
0000
0000
0000
0000
0000
0000
1000
0000
0000
0000
0000
0000
0000
0000
0000
0000
0000
0000
0000
0000
0000
0000
0000
0000
0000
0000
0000
0000
0000
0000
0100
0000
0000
0000
0000
0000
0000
0000
0000
0000
0000
0000
0000
0000
0000
0000
0000
0000
0000
0000
0000
0000
0000
0000
0000
0000
0000
0000
0000
0000
0000
0000
,
0011
1000
0110
0001
1100
0000
0101
0010
1100
0001
1010
0000
0110
0100
1001
0000
,
0101
0000
0000
0010
0000
0000
1100
0000
0000
0001
0000
0000
0110
0000
0000
0000
0000
0000
1010
0000
0000
0001
0000
0000
0200
0000
0000
0000
0000
0000
0000
0000
0020
0000
0000
0000
0000
0000
0000
0000
0000
0000
0330
0000
0000
0000
0000
0000
,
1101
0010
1101
0010
0101
0000
1010
0100
1011
0100
1011
0000
0011
0010
1100
0000
,
0001
0000
0010
0000
1100
0000
0001
0000
0010
0000
1100
0000
0001
0010
0100
1000
,
0012
0100
1003
0110
1001
1001
2002
3003
,
0100
0010
0001
0010
0100
0000
1010
0000
0101
0000
0101
0000
0202
0000
0303
0000
,
0100
0001
1000
0010
0100
0000
1011
0000
1101
0000
1101
0000
2202
0000
3303
0000
,
0222
0000
2333
0000
,
3000
0000
0000
0000
;

//---------------dance-single - ----------------
#NOTES:
     dance-single:
     :
     Hard:
     14:
     1.000,1.000,1.000,0.341,1.000,1385.000,376.000,49.000,0.000,8.000:
0100
1010
0100
0011
0100
1010
0100
0011
,
1000
0000
0101
0000
1000
0000
0110
0000
1000
0000
0101
0000
0010
0100
0010
0100
,
0010
1001
0010
1100
0010
1001
0010
1100
,
0001
0001
0001
0001
2002
0000
0000
3003
,
1000
0000
0000
0000
1000
0000
0000
0000
0010
0000
0000
0000
0010
0000
0000
0000
0100
0000
0000
0000
0100
0000
0000
0000
0001
0000
0000
0000
1000
0100
0010
0001
,
1000
0000
0100
0000
0100
0000
0010
0000
0010
0001
1000
0010
0100
0000
1001
0000
,
0010
0000
0010
0000
0100
0000
0100
0000
1000
0100
0010
0100
0010
0001
1000
0001
,
0100
0100
0001
0001
1000
0011
1000
0101
,
0010
1001
0010
0101
0010
1001
0010
0101
,
1000
0000
0011
0000
1000
0000
0101
0000
1000
0000
0011
0000
1000
0010
1000
0001
,
0010
1100
0010
0101
0010
1100
0010
0101
,
1000
1000
1000
1000
2002
0000
0000
3003
,
0100
0000
0000
0000
0000
0000
1001
0000
0000
0000
0000
0000
0010
0000
0000
0000
0000
0000
1001
0000
0000
0000
0000
0000
0100
0000
0000
0000
0000
0000
1001
0000
0000
0000
0000
0000
0001
0000
0000
0010
0000
0000
0100
0000
1000
0000
0100
0000
,
0010
0000
0000
0000
0000
0000
1001
0000
0000
0000
0000
0000
0100
0000
0000
0000
0000
0000
1001
0000
0000
0000
0000
0000
0010
0000
0000
0000
0000
0000
1001
0000
0000
0000
0000
0000
1000
0000
0000
0100
0000
0000
0010
0000
0001
0000
0010
0000
,
0100
0000
0000
0000
0000
0000
1001
0000
0000
0000
0000
0000
0010
0000
0000
0000
0000
0000
1001
0000
0000
0000
0000
0000
0100
0000
0000
0000
0000
0000
1001
0000
0000
0000
0000
0000
0010
0000
0000
0100
0000
0000
1000
0000
0100
0000
0010
0000
,
0001
0000
0000
0000
0001
0000
0000
0000
1000
0000
0000
0000
1000
0000
0000
0000
0001
0010
0100
1000
0001
0000
1000
0000
0001
0000
1000
0000
0001
0000
1000
0000
,
0001
0100
0010
0000
1000
0010
0100
0000
0001
0010
0100
0000
1000
0100
0010
0000
,
0001
1000
0010
0000
0100
0001
1000
0000
0100
0010
0001
0000
0100
0010
1000
0010
,
0100
0000
0000
0000
0000
0000
0000
0000
0000
0000
0000
0000
0000
0001
0000
0000
0010
0000
0000
0000
0000
0000
0000
0000
0000
0000
0000
0000
0000
0100
0000
0000
0010
0000
0000
0000
0000
0000
0000
0000
0000
0000
0000
0000
0000
1000
0000
0000
0100
0000
0000
0000
0000
0000
0000
0000
0000
0000
0000
0000
0000
0001
0000
0000
,
0110
0000
0110
0000
0110
0000
0110
0000
1000
0100
0010
0001
1000
0100
0010
0001
,
1100
0000
0010
0000
0101
0000
0010
1000
0000
0100
0010
0000
1100
0010
0100
0000
,
0011
0000
1000
0000
0110
0000
0001
1000
0000
0100
0010
0000
0101
0010
0100
0000
,
1001
0000
0100
0000
0011
0000
0100
1000
0000
0100
0010
0000
0011
0100
0010
0000
,
1010
0000
0110
0000
0101
0000
0110
0000
1000
0010
0100
0001
1000
0010
0100
0001
,
1100
0000
0002
0000
0113
0000
0001
0010
0100
1000
0100
0000
0011
1000
0010
0000
,
0101
0000
0010
0000
1100
0000
0001
0100
0010
0100
0001
0000
1100
0001
1000
0001
,
0110
0000
1000
0000
0101
0000
0010
1000
0100
0010
0001
0000
0110
1000
0010
0000
,
1100
0000
1010
0000
0110
0000
0101
0000
0001
0010
0100
1000
0001
0010
0100
1000
,
0210
0000
0301
0010
1100
0000
0010
0100
1000
0100
0010
0000
0101
1000
0100
0000
,
0011
0000
0100
0010
1100
0000
0001
0100
0010
1000
0100
0000
0011
1000
0010
1000
,
0110
0000
0001
1000
0110
0000
1000
0001
0100
0010
0100
0000
1001
0010
0001
0000
,
1100
0000
0000
0000
0000
0000
1001
0000
0000
0000
0000
0000
0011
0000
0000
0000
0000
0000
1001
0000
0000
0000
0000
0000
0000
0000
0002
0000
0000
0000
2000
0000
0000
0003
0000
0000
0000
0020
0000
3000
0000
0000
0030
0000
0000
0000
0000
0000
,
1100
0000
0000
0000
1100
0000
0000
0000
0110
0000
0000
0000
0110
0000
0000
0000
0011
0000
0000
0000
0011
0000
0000
0000
1001
0000
0000
0000
0100
0010
1000
0001
,
0100
0000
0000
0000
0011
0000
0000
0000
1010
0000
0000
0000
1010
0000
0000
0000
0110
0000
0000
0000
0110
0000
0000
0000
0101
0000
0000
0000
1000
0001
0100
0010
,
1000
0000
0000
0000
0101
0000
0000
0000
1001
0000
0000
0000
1001
0000
0000
0000
1010
0000
0000
0000
1010
0000
0000
0000
0110
0000
0000
0000
0001
0010
0100
1000
,
0010
0000
0110
0000
0011
0000
0101
0000
0100
0010
1000
0010
0100
0000
0020
0000
,
2130
3010
2100
3000
0200
0300
0200
0300
,
0020
0030
0020
0030
0002
0003
0002
0003
,
0001
0000
0000
0000
0000
0000
0000
0000
0000
0000
0000
0000
0010
0000
0000
0000
0000
0000
0000
0000
0000
0000
0000
0000
0000
0000
0000
0100
0000
0000
0000
0000
0000
0000
0000
0000
0000
0000
0000
0000
1000
0000
0000
0000
0000
0000
0000
0000
0020
0000
0000
0000
0000
0000
0000
0000
0000
0000
0000
0000
0000
0000
0000
0000
0000
0000
0000
0000
0000
0000
0000
0000
0000
0000
0000
0000
0000
0000
0000
0000
0000
0000
0000
0000
0000
0000
0000
0000
0000
0000
0000
0000
0000
0000
0000
0000
0130
0000
0000
0000
0000
0000
0000
0000
0001
0000
0000
0000
0000
0000
0000
0000
1000
0000
0000
0000
0000
0000
0000
0000
0010
0000
0000
0000
0000
0000
0000
0000
0100
0000
0000
0000
0000
0000
0000
0000
0001
0000
0000
0000
0000
0000
0000
0000
1000
0000
0000
0000
0000
0000
0000
0000
0000
0010
0000
0000
0000
0000
0000
0000
0000
0000
0100
0000
0000
0000
0000
0000
0000
0000
0000
0000
0001
0000
0000
0000
0000
0000
0000
0000
1000
0000
0000
0000
0000
0000
0000
0000
0000
0000
0000
0000
,
0010
0100
0001
1000
0010
0100
0001
1000
,
0110
0000
0000
0000
0101
0000
0000
0000
0011
0000
0000
0000
1001
0000
0000
0000
1010
0000
0000
0000
0110
0000
0000
0000
1001
0000
0000
0000
0010
0100
0001
1000
,
0100
0000
0000
0000
0000
0000
0000
0000
0010
0000
0000
0000
0000
0000
0000
0000
0001
0000
0000
0000
0000
0000
0000
0000
0000
0000
0000
0000
0000
0000
0000
0000
0000
0000
0000
0000
0000
0000
0000
0000
0000
0000
0000
0000
0000
0000
0000
0000
0010
0000
0000
0000
0000
0000
1000
0000
0000
0000
0000
0000
0001
0000
0000
0000
0000
0000
0100
0000
0000
0000
0000
0000
0010
0000
0000
0000
0000
0000
0000
0000
0000
0000
0000
0000
1000
0000
0000
0000
0000
0000
0000
0000
0000
0000
0000
0000
0001
0000
0000
0000
0000
0000
0000
0000
0000
0000
0000
0000
0100
0000
0000
0000
0000
0000
0000
0000
0000
0000
0000
0000
0010
0000
0000
0000
0000
0000
0000
0000
0000
0000
0000
0000
1000
0000
0000
0000
0000
0000
0000
0000
0000
0000
0000
0000
0010
0000
0000
0000
0000
0000
0000
0000
0000
0000
0000
0000
0100
0000
0000
0000
0000
0000
0000
0000
0000
0000
0000
0000
0010
0000
0000
0000
0000
0000
0000
0000
0000
0000
0000
0000
0000
0000
0000
0000
0000
0000
0000
0000
0000
0000
0000
0000
,
0100
0000
0000
0000
1001
0000
0000
0000
0110
0000
0000
0000
1001
0000
0000
0000
1100
0000
0000
0000
0110
0000
0000
0000
0011
0000
0000
0000
0001
0010
0100
1000
,
0001
0000
0000
0000
0000
0000
0000
0000
0000
0000
0000
0000
0000
0000
0000
0000
0010
0000
0000
0000
0000
0000
0000
0000
0000
0000
0000
0000
0000
0000
0000
0000
0001
0000
0000
0000
0000
0000
0000
0000
0000
0000
0000
0000
0000
0000
0000
0000
0100
0000
0000
0000
0000
0000
0000
0000
0000
0000
0000
0000
0000
0000
0000
0000
0000
0000
0000
0000
0000
0000
0000
0000
0000
0000
0000
0000
0000
0000
0001
0000
0000
0000
0000
0000
0000
0000
0000
0000
0000
0000
0000
0000
1000
0000
0000
0000
0000
0000
0000
0000
0000
0000
0100
0000
0000
0000
0000
0000
0000
0000
0000
0000
0000
0000
0010
0000
0000
0000
0000
0000
0000
0000
0000
0000
0000
0000
0001
0000
0000
0000
0000
0000
0000
0000
0000
0000
0000
0000
0000
0000
0000
1000
0000
0000
0000
0000
0000
0000
0000
0000
0000
0000
0000
0000
0000
0000
0010
0000
0000
0000
0000
0000
0000
0000
0000
0000
0000
0000
1000
0000
0000
0000
0000
0000
0100
0000
0000
0000
0000
0000
0010
0000
0000
0000
0000
0000
0100
0000
0000
0000
0000
0000
,
1000
0000
0000
0100
0010
0000
1001
0000
0000
0100
0001
0000
1010
0000
0000
0010
,
0001
0000
0000
0000
0000
0000
0000
0000
0000
0000
0000
0000
0000
0000
0000
0000
0000
0000
0000
0000
0000
1000
0000
0000
0000
0000
0000
0000
0000
0000
0000
0000
0000
0000
0000
0000
0000
0000
0000
0000
0000
0000
0000
0000
0000
0000
0000
0000
0100
0000
0000
0000
0000
0000
0000
0000
0010
0000
0000
0000
0000
0000
0000
0000
0000
0000
0000
0000
0000
0000
0000
0000
0001
0000
0000
0000
0000
0000
0000
0000
0000
0000
0000
0000
0000
0000
0000
0000
0100
0000
0000
0000
0000
0000
0000
0000
0000
0000
0000
0000
0000
0000
0000
0000
0000
0000
0000
0000
0000
0000
0000
0000
0000
0000
0000
0000
0000
0000
0000
0000
1000
0000
0000
0000
0001
0000
0000
0000
0000
0000
0000
0000
0000
0000
0000
0000
0000
0000
0000
0000
0000
0000
0000
0000
0010
0000
0000
0000
0000
0000
0000
0000
0000
0000
0000
0000
0100
0000
0000
0000
0000
0000
0000
0000
0000
0000
0000
0000
0000
0000
0000
0000
0000
0000
0000
0000
0000
0000
0000
0000
0000
0000
0000
0000
0000
0000
0000
0000
0000
0000
0000
0000
,
1010
0000
0000
0001
1000
0000
0110
0000
0000
0001
1000
0000
0011
0000
0000
0100
,
0001
0000
0000
0000
0000
0000
0000
0000
0000
0000
0000
0000
0000
0000
0000
0000
0000
0000
0000
0000
0000
0010
0000
0000
0000
0000
0000
0000
0000
0000
0000
0000
0000
0000
0000
0000
0000
0000
0000
0000
0000
0000
0000
0000
0000
0000
0000
0000
0100
0000
0000
0000
0000
0000
0000
0000
0001
0000
0000
0000
0000
0000
0000
0000
0000
0000
0000
0000
0000
0000
0000
0000
0010
0000
0000
0000
0000
0000
0000
0000
0000
0000
0000
0000
0000
0000
0000
0000
1000
0000
0000
0000
0000
0000
0000
0000
0000
0000
0000
0000
0000
0000
0000
0000
0000
0000
0000
0000
0000
0000
0000
0000
0000
0000
0000
0000
0000
0000
0000
0000
0001
0000
0000
0000
0010
0000
0000
0000
0000
0000
0000
0000
0000
0000
0000
0000
0000
0000
0000
0000
0000
0000
0000
0000
1000
0000
0000
0000
0000
0000
0000
0000
0000
0000
0000
0000
0100
0000
0000
0000
0000
0000
0000
0000
0000
0000
0000
0000
0000
0000
0000
0000
0000
0000
0000
0000
0000
0000
0000
0000
0000
0000
0000
0000
0000
0000
0000
0000
0000
0000
0000
0000
,
0011
0000
0000
0100
0001
0000
1010
0000
0000
0001
1000
0000
0110
0000
0000
1000
,
0011
0100
1000
0001
0110
0000
1000
0010
1000
0100
1001
0000
0010
0010
0101
0000
,
1000
0000
0011
0000
1000
1000
0001
1000
,
0100
0000
0000
0000
0000
0000
0000
0000
0000
0000
0000
0000
0000
0000
0000
0000
0000
0000
0000
0000
0000
0010
0000
0000
0000
0000
0000
0000
0000
0000
0000
0000
0000
0000
0000
0000
0000
0000
0000
0000
0000
0000
0000
0000
0000
0000
0000
0000
1000
0000
0000
0000
0000
0000
0000
0000
0001
0000
0000
0000
0000
0000
0000
0000
0000
0000
0000
0000
0000
0000
0000
0000
0100
0000
0000
0000
0000
0000
0000
0000
0000
0000
0000
0000
0000
0000
0000
0000
1000
0000
0000
0000
0000
0000
0000
0000
0000
0000
0000
0000
0000
0000
0000
0000
0000
0000
0000
0000
0000
0000
0000
0000
0000
0000
0000
0000
0000
0000
0000
0000
0010
0000
0000
0000
0100
0000
0000
0000
0000
0000
0000
0000
0000
0000
0000
0000
0000
0000
0000
0000
0000
0000
0000
0000
0001
0000
0000
0000
0000
0000
0000
0000
0000
0000
0000
0000
1000
0000
0000
0000
0000
0000
0000
0000
0000
0000
0000
0000
0000
0000
0000
0000
0000
0000
0000
0000
0000
0000
0000
0000
0000
0000
0000
0000
0000
0000
0000
0000
0000
0000
0000
0000
,
0001
0010
1100
0000
0001
0001
1000
0001
,
0010
0000
0000
0000
0000
0000
0000
0000
0000
0000
0000
0000
0000
0000
0000
0000
0000
0000
0000
0000
0000
1000
0000
0000
0000
0000
0000
0000
0000
0000
0000
0000
0000
0000
0000
0000
0000
0000
0000
0000
0000
0000
0000
0000
0000
0000
0000
0000
0001
0000
0000
0000
0000
0000
0000
0000
0100
0000
0000
0000
0000
0000
0000
0000
0000
0000
0000
0000
0000
0000
0000
0000
0010
0000
0000
0000
0000
0000
0000
0000
0000
0000
0000
0000
0000
0000
0000
0000
0001
0000
0000
0000
0000
0000
0000
0000
0000
0000
0000
0000
0000
0000
0000
0000
0000
0000
0000
0000
0000
0000
0000
0000
0000
0000
0000
0000
0000
0000
0000
0000
1000
0000
0000
0000
0010
0000
0000
0000
0000
0000
0000
0000
0000
0000
0000
0000
0000
0000
0000
0000
0000
0000
0000
0000
0100
0000
0000
0000
0000
0000
0000
0000
0000
0000
0000
0000
0001
0000
0000
0000
0000
0000
0000
0000
0000
0000
0000
0000
0000
0000
0000
0000
0000
0000
0000
0000
0000
0000
0000
0000
0000
0000
0000
0000
0000
0000
0000
0000
0000
0000
0000
0000
,
0110
1000
0001
0100
1010
0000
0100
0001
0100
0010
1100
0000
0010
0100
0010
0100
,
1000
0000
1000
0000
0110
0000
0110
0000
1000
0001
1000
0001
1000
0000
1000
0000
,
1000
0000
0000
0000
0000
0000
0000
0000
0000
0000
0000
0000
0000
0000
0000
0000
0000
0000
0000
0000
0000
0001
0000
0000
0000
0000
0000
0000
0000
0000
0000
0000
0000
0000
0000
0000
0000
0000
0000
0000
0000
0000
0000
0000
0000
0000
0000
0000
0100
0000
0000
0000
0000
0000
0000
0000
0010
0000
0000
0000
0000
0000
0000
0000
0000
0000
0000
0000
0000
0000
0000
0000
1000
0000
0000
0000
0000
0000
0000
0000
0000
0000
0000
0000
0000
0000
0000
0000
0100
0000
0000
0000
0000
0000
0000
0000
0000
0000
0000
0000
0000
0000
0000
0000
0000
0000
0000
0000
0000
0000
0000
0000
0000
0000
0000
0000
0000
0000
0000
0000
0001
0000
0000
0000
1000
0000
0000
0000
0000
0000
0000
0000
0000
0000
0000
0000
0000
0000
0000
0000
0000
0000
0000
0000
0010
0000
0000
0000
0000
0000
0000
0000
0000
0000
0000
0000
0100
0000
0000
0000
0000
0000
0000
0000
0000
0000
0000
0000
0000
0000
0000
0000
0000
0000
0000
0000
0000
0000
0000
0000
0000
0000
0000
0000
0000
0000
0000
0000
0000
0000
0000
0000
,
0011
1000
0001
0100
1010
0000
0001
1000
0001
1000
0110
0000
0100
0010
0100
1000
,
0001
0000
0110
0000
0001
0001
0100
0001
,
0001
0000
0000
0000
0000
0000
0000
0000
0000
0000
0000
0000
0000
0000
0000
0000
0000
0000
0000
0000
0000
1000
0000
0000
0000
0000
0000
0000
0000
0000
0000
0000
0000
0000
0000
0000
0000
0000
0000
0000
0000
0000
0000
0000
0000
0000
0000
0000
0010
0000
0000
0000
0000
0000
0000
0000
0100
0000
0000
0000
0000
0000
0000
0000
0000
0000
0000
0000
0000
0000
0000
0000
0001
0000
0000
0000
0000
0000
0000
0000
0000
0000
0000
0000
0000
0000
0000
0000
0010
0000
0000
0000
0000
0000
0000
0000
0000
0000
0000
0000
0000
0000
0000
0000
0000
0000
0000
0000
0000
0000
0000
0000
0000
0000
0000
0000
0000
0000
0000
0000
1000
0000
0000
0000
0001
0000
0000
0000
0000
0000
0000
0000
0000
0000
0000
0000
0000
0000
0000
0000
0000
0000
0000
0000
0200
0000
0000
0000
0000
0000
0000
0000
0000
0000
0000
0000
0000
0000
0000
0000
0000
0000
0000
0000
0000
0000
0000
0000
0300
0000
0000
0000
0000
0000
0000
0000
0000
0000
0000
0000
0010
0000
0000
0000
0000
0000
0000
0000
0000
0000
0000
0000
,
1000
1000
0101
0000
1000
1000
0101
1000
,
1000
0000
0000
0000
1000
0000
0000
0000
0101
0000
0000
0000
0101
0000
0000
0000
0010
0000
0100
0000
0010
0000
0100
0000
0010
0001
1000
0100
0011
0000
0000
0000
,
0011
0000
0000
0000
0000
0000
0000
0000
0110
0000
0000
0000
0000
1100
0000
0000
0000
0000
0000
0000
1100
0000
0000
0000
0110
0000
0000
0000
0000
0000
1000
0100
,
0011
0000
0000
0000
0000
0000
0000
0000
0110
0000
0000
0000
0000
1001
0000
0000
0000
0000
0000
0000
1001
0000
0000
0000
0110
0000
0000
0000
0000
0000
0001
0010
,
1100
0000
0000
0000
0000
0000
0000
0000
1001
0000
0000
0000
0000
1010
0000
0000
0000
0000
0000
0000
1010
0000
0000
0000
1001
0000
0000
0000
0000
0000
0010
0100
,
1001
0000
0000
0000
0000
0000
0000
0000
0011
0000
0000
0000
0000
1100
0000
0000
0000
0000
0000
0000
1100
0000
0000
0000
0011
0000
0000
0000
0000
0000
0100
0010
,
1001
0000
0000
0000
0001
0010
0100
1000
0011
0000
0000
0000
0000
0110
0000
0000
0000
0000
0000
0000
0110
0000
0000
0000
1100
0000
0000
0000
0000
0000
0000
0000
,
1000
0000
0000
0000
0000
0000
0100
0000
0000
0000
0000
0000
0010
0000
0000
0000
0000
0000
0001
0000
0000
0000
0000
0000
1000
0000
0000
0000
0000
0000
0000
0000
0000
0000
0000
0000
0000
0000
0000
0000
0000
0000
0000
0000
0000
0000
0000
0000
0010
0000
0000
0000
0000
0000
0100
0000
0000
0000
0000
0000
0001
0000
0000
0000
0000
0000
1000
0000
0000
0000
0000
0000
0000
0000
0000
0000
0000
0000
0110
0000
0000
0000
0000
0000
0000
0000
0000
0000
0000
0000
0000
0000
0000
0000
0000
0000
0000
0000
0000
0000
0000
0000
0000
0000
0000
0000
0000
0000
0000
0000
0000
0000
0000
0000
0000
0000
0000
0000
0000
0000
0110
0000
0000
0000
0000
0000
0000
0000
0000
0000
0000
0000
0000
0000
0000
0000
0000
0000
0000
0000
0000
0000
0000
0000
0011
0000
0000
0000
0000
0000
0000
0000
0000
0000
0000
0000
0000
0000
0000
0000
0100
0000
0000
0000
0000
0000
0000
0000
0000
0000
0000
0000
0000
0000
0000
0000
0100
0000
0000
0000
0000
0000
0000
0000
0000
0000
0000
0000
0000
0000
0000
0000
,
1001
0000
0000
0000
0000
0000
0000
0000
0000
0100
0000
0000
0000
0000
0000
0000
1010
0000
0000
0000
0000
0000
0000
0000
0000
0001
0000
0000
0000
0000
0000
0000
0110
0000
0000
0000
0000
0000
0000
0000
0000
1000
0000
0000
0000
0000
0000
0000
0101
0000
0000
0000
0000
0000
0000
0000
0000
0010
0000
0000
0000
0000
0000
0000
,
1001
0000
0000
0000
0000
0000
0000
0000
0000
0100
0000
0000
0000
0000
0000
0000
1010
0000
0000
0000
0000
0000
0000
0000
0000
0100
0000
0000
0000
0000
0000
0000
2000
0000
0000
0000
0000
0000
0000
0000
0000
0000
0000
0000
0000
0000
0000
0000
0002
0000
0000
0000
0000
0000
0000
0000
3003
0000
0000
0000
0000
0000
0000
0000
,
0110
0001
0100
0010
1100
0000
0001
1000
0100
0010
0101
0000
0001
0010
0100
1000
,
0001
0010
0100
1000
0001
0000
0100
0000
0011
0000
0000
0000
1000
0000
0100
0000
0010
0100
1000
0000
0011
0000
0000
0000
0100
0000
0010
0000
0100
0000
0001
0000
,
1100
0000
0010
0000
0100
0000
1000
0000
0110
0000
0000
0000
0001
0000
0100
0000
0010
0000
1000
0000
0100
0010
0001
0010
0100
0000
1000
0000
0100
0000
0010
0000
,
1100
0010
0100
0001
1010
0000
0100
0001
1000
0010
1001
0000
0110
0000
0110
0000
,
1001
0000
0000
0000
0010
0000
0001
0100
1010
0000
0000
0000
0001
0000
1000
0010
0100
0001
1000
0010
0100
0000
0010
0000
0100
0000
0001
0000
1000
0000
0001
0000
,
0110
0000
0000
0000
0000
0000
0000
0000
0000
0000
0000
0000
0000
0000
0000
0000
1000
0000
0000
0000
0000
0000
0000
0000
0000
0000
0000
0000
0000
0000
0000
0000
1000
0000
0000
0000
0000
0000
0000
0000
0000
0000
0000
0000
0000
0000
0000
0000
0011
0000
0000
0000
0000
0000
0000
0000
0000
0000
0000
0000
0000
0000
0000
0000
0000
0000
0000
0000
0000
0000
0000
0000
0100
0000
0000
0000
0000
0000
0001
0000
0000
0000
0000
0000
0010
0000
0000
0000
0000
0000
0100
0000
0000
0000
0000
0000
1000
0000
0000
0000
0000
0000
0100
0000
0000
0000
0000
0000
0010
0000
0000
0000
0000
0000
0001
0000
0000
0000
0000
0000
1100
0000
0000
0000
0000
0000
0000
0000
0000
0000
0000
0000
0000
0000
0000
0000
0000
0000
0000
0000
0000
0000
0000
0000
0010
0000
0000
0000
0000
0000
0000
0000
0000
0000
0000
0000
0001
0000
0000
0000
0000
0000
0000
0000
0000
0000
0000
0000
1000
0000
0000
0000
0000
0000
0000
0000
0000
0000
0000
0000
0000
0000
0000
0000
0000
0000
0000
0000
0000
0000
0000
0000
,
0101
0000
0010
0000
0100
0000
1000
0000
0001
0010
0100
1000
0001
0010
0100
1000
0002
0000
0000
0000
2003
0000
3020
0000
0000
0000
0000
0000
0000
0000
0000
0000
,
0000
0000
0000
0000
0000
0000
0000
0000
0000
0000
0000
0000
0000
0000
0000
0230
0000
0000
0000
0000
0000
0000
0000
0000
0000
0000
0000
0000
0000
0000
2300
0000
0000
0000
0000
0000
3010
0000
0100
0000
0001
0000
0010
0000
0100
0000
1000
0000
0001
0000
0000
0000
0010
0000
0000
0000
0100
0000
0000
0000
1000
0000
0000
0000
,
0011
0100
0010
0000
1100
0010
0001
0100
0010
0100
1001
0000
0100
0100
1010
0000
,
0101
0010
1000
0000
0011
0100
1000
0010
0100
0001
0110
0000
1000
1000
0011
0000
,
1001
0010
0100
0000
0011
1000
0010
0100
0001
0010
1100
0000
0010
0010
1001
0000
,
0110
1100
0110
0002
0023
0230
2300
3000
,
0101
0000
0010
1000
0011
0000
0100
0001
1000
0100
0011
0000
1000
1000
0110
0000
,
0101
0000
1000
0001
0110
0000
0001
1000
0100
0010
1100
0000
0001
0001
0110
0000
,
1001
0000
0100
0001
0110
0000
1000
0010
0100
0001
0110
0000
1000
1000
0101
0000
,
0010
0000
1000
0000
0001
0000
0100
0000
0001
0000
1000
0000
0001
1000
0000
0000
,
1100
0011
1100
0011
1100
0000
0101
0000
1000
0100
0011
0000
0001
0010
0100
0000
,
0010
0100
0001
0010
1100
0000
0010
0100
0001
0100
1010
0000
0100
0001
1000
0100
,
0011
0100
1000
0100
1010
0000
0100
0001
1000
0010
0101
0000
1000
1000
0110
0000
,
0101
0010
1000
0001
0110
0000
1000
0100
0010
0100
1001
0000
0100
0100
1010
0000
,
0001
0010
0100
1000
0010
0100
0001
0010
0100
1000
0010
0100
0001
0010
0100
1000
,
0001
0000
0000
0000
0000
0000
0000
0000
0100
0000
0000
0000
1000
0000
0000
0000
0000
0000
0000
0000
0010
0000
0000
0000
0001
0000
0000
0000
0000
0000
0000
0000
0100
0000
0000
0000
1000
0000
0000
0100
0000
0000
0010
0000
0000
0001
0000
0000
,
1100
0001
0100
0010
1001
0000
0010
0001
1000
0100
1010
0000
0001
0001
1100
0000
,
0011
0110
1100
0020
0230
0302
2003
3000
,
0101
1000
0001
0100
1010
0000
0100
0010
1000
0001
0110
0000
1000
1000
0110
0000
,
0011
1000
0010
0100
0011
0000
0100
0010
1000
0001
0110
0000
1000
1000
0011
0000
,
0110
1000
0001
0100
1010
0000
0001
0010
0100
0010
0101
0000
0010
0010
1100
0000
,
0001
0000
0000
0000
0000
0000
0100
0000
0000
0010
0000
0000
1000
0000
0000
0000
0100
0000
0000
0000
0010
0000
0000
0000
0100
0000
0000
0000
0000
0000
1000
0000
0000
0000
0000
0000
0001
0000
0000
0100
0000
0000
0000
0000
0000
0000
0000
0000
,
0011
1100
0011
1100
0011
0000
1001
0000
0010
0100
1001
0000
0100
0010
1000
0000
,
0100
0010
1000
0010
1100
0000
0010
0100
0001
0100
1010
0000
0100
0100
1010
0000
,
0101
1000
0001
0100
0011
0000
1000
0010
0100
0001
0110
0000
0100
0100
0011
0000
,
0101
0010
1000
0001
0110
0000
0100
0001
0100
0010
0101
0000
0100
0100
1010
0000
,
0101
0000
0010
1000
0110
0000
0100
0001
0010
0100
1000
0010
0101
0000
0010
0100
,
0001
0010
0100
1000
0001
0010
0100
1000
0001
0000
0010
0000
0100
0000
1000
0000
0001
0000
0000
0000
0010
0000
0000
0000
0100
0000
0000
0000
1000
0000
0000
0000
,
0110
0000
0001
0100
0010
0100
0001
0010
1100
0000
0010
0000
0101
0000
1010
0000
,
0110
0000
0001
0100
0010
0001
0100
0010
1100
0000
0001
0000
0110
0000
1001
0000
,
1100
0000
0010
0100
0010
1000
0010
0100
1001
0000
0010
0000
0101
0000
1010
0000
,
0110
0000
1000
0100
0010
0100
0001
0010
0101
0000
1000
0000
0011
0000
1100
0000
,
1001
0000
0000
0000
0000
0000
0100
0000
0000
0001
0000
0000
0000
0010
0000
0001
0000
0000
0100
0000
0000
0010
0000
0000
0101
0000
0000
0000
0000
0000
0010
0000
0000
0000
0000
0000
1001
0000
0000
0000
0000
0000
0110
0000
0000
0000
0000
0000
,
0011
0000
0100
1000
0010
0001
0100
0010
1001
0000
0100
0000
0011
0000
1100
0000
,
0101
0000
0000
0000
0000
0000
0010
0000
0000
0100
0000
0000
0000
0001
0000
1000
0000
0000
0010
0000
0000
0100
0000
0000
1001
0000
0000
0000
0000
0000
0100
0000
0000
0000
0000
0000
1001
0000
0000
0000
0000
0000
0110
0000
0000
0000
0000
0000
,
0101
0000
0010
1000
0001
0010
1000
0001
0110
0000
1000
0000
0101
0000
1010
0000
,
1001
0100
0010
0100
0011
0000
1100
0010
0100
0001
0110
0000
1000
1000
0101
0000
,
0011
0100
0001
0010
1100
0000
0101
0010
1000
0001
0110
0000
0100
0100
1001
0000
,
0110
0001
1000
0100
1010
0000
0101
0010
1000
0001
0110
0000
0010
0010
1100
0000
,
0010
0100
1001
0010
0100
1001
0010
0100
,
1001
0010
0100
0010
1001
0000
0011
0100
1000
0100
0011
0000
0100
0100
1001
0000
,
0110
1000
0010
0001
1010
0000
0101
0010
1000
0010
1001
0000
0010
0010
1100
0000
,
0011
0100
1000
0100
1001
0000
0110
0001
1000
0010
0101
0000
0001
0001
1100
0000
,
0010
0000
0000
0000
0000
0000
0000
0000
0000
0000
0000
0000
0000
0000
0000
0000
0000
0000
0000
0000
0000
0000
0000
0000
0000
0000
0000
0000
0000
0000
0100
0000
0000
0000
0000
0000
0000
0000
0000
0000
0000
0000
0000
0000
0000
0000
0000
0000
0000
0000
0000
0000
0000
0000
0000
0000
0000
0000
0000
0000
0000
0000
0000
0000
0000
0000
0000
0000
0000
0000
0000
0000
0000
0000
0000
0000
0000
0000
0000
0000
1000
0000
0000
0000
0000
0000
0000
0000
0000
0000
0000
0000
0000
0000
0000
0000
0000
0000
0000
0000
0000
0000
0000
0000
0000
0000
0000
0000
0000
0000
0000
0000
0001
0000
0000
0000
0000
0000
0000
0000
0000
0000
0000
0000
0000
0000
0000
0000
0000
0000
0000
0000
0000
0000
0000
0000
1000
0000
0000
0000
0000
0000
0000
0000
0000
0000
0000
0000
0000
0000
0000
0000
0000
0000
0000
0000
0000
0000
0000
0000
0100
0000
0000
0000
0000
0000
0000
0000
0000
0000
0000
0000
0000
0000
0000
0000
0000
0000
0000
0000
0000
0000
0000
0000
0000
0000
0000
0000
0000
0000
0000
0000
,
0011
1000
0010
0001
1100
0000
0101
0010
0100
0001
1010
0000
0100
0100
1001
0000
,
0101
0000
0000
0010
0000
0000
0100
0000
0000
0001
0000
0000
0110
0000
0000
0000
0000
0000
1010
0000
0000
0001
0000
0000
0200
0000
0000
0000
0000
0000
0000
0000
0020
0000
0000
0000
0000
0000
0000
0000
0000
0000
0330
0000
0000
0000
0000
0000
,
0101
0010
0101
0010
0101
0000
1010
0100
1010
0100
1010
0000
0011
0001
1100
0000
,
0001
0000
0010
0000
1100
0000
0001
0000
0010
0000
1100
0000
0001
0010
0100
1000
,
0012
0100
1003
0110
1001
1001
2002
3003
,
0100
0010
0001
0010
0100
0000
1010
0000
0101
0000
0101
0000
0202
0000
0303
0000
,
0100
0001
1000
0010
0100
0000
1011
0000
1101
0000
1101
0000
2202
0000
3303
0000
,
0222
0000
2333
0000
,
3000
0000
0000
0000
;
